Home / TV-Shows (page 2)

TV-Shows

[TV-SHOW] 鈴木愛理FCイベント 第1回あいりまにあ会~武道館おつかれ/あっそういえば24歳おめでとう~ (2018.09.28) (DVDISO)

鈴木愛理のM-line club初のファンクラブイベントがDVDになりました。 ファンの皆さんから歌って欲しい楽曲を募集し、投票が多かった上位30曲の中からその場で抽選し歌ったライブコーナーを中心に、タイトルの通り7月に行われた武道館公演の振り返りや、3ヵ月遅れの誕生日のお祝い・

Read More »

[TV-SHOW] 花澤香菜 – Kana Hanazawa Live 2017 “Opportunity” (2017.09.27) (BDRIP)

1. opening 2. スウィンギング・ガール 3. FRIENDS FOREVER 4. 滞空時間 5. カレイドスコープ 6. 透明な女の子 7. Opportunity 8. ざらざら 9. あたらしいうた 10. 星結ぶとき 11. Marmalade Jam 12. brilliant 13. 雲に歌えば 14. FLOWER MARKET 15. Seasons always change 16. Blue Water 17. Merry Go Round 18. We Are …

Read More »

[TV-SHOW] TGC KITAKYUSHU 2018 by TOKYO GIRLS COLLECTION (2018.12.08)

番組情報 ▽東京ガールズコレクションが、福岡県北九州市で開催した「takagi presents TGC KITAKYUSHU 2018 by TOKYO GIRLS COLLECTION」を独占放送! 超特急、DOBERMAN INFINITYらのライブに加え、豪華ゲストによるスペシャルコンテンツ、けやき坂46や乃木坂46のメンバーを含めた40名以上の人気モデルによる最新のファッションショーをお届け。

Read More »

[TV-SHOW] 欅坂46 – 不協和音 (欅共和国2017) (2018.09.26) (BDRIP)

Duration: 00:04:08.18, start: 0.000000, bitrate: 8399 kb/s Stream #0:0(eng): Video: vp9 (Profile 0), yuv420p(tv), 1920×1080, SAR 1:1 DAR 16:9, 23.98 fps, 23.98 tbr, 1k tbn, 1k tbc (default) Stream #0:1: Audio: vorbis, 48000 Hz, stereo, fltp (default) Live performance of Fukyouwaon from Keyaki Kyouwakoku 2017 …

Read More »

[TV-SHOW] NICO Touches the Walls – TOUR2011 PASSENGER ~We are Passionate Messenger~ (2012.01.21) (DV…

NICO Touches the Walls “TOUR 2011 PASSENGER ~we are passionate messenger~” to Promote the 3rd studio album, “PASSENGER”, released on January, 21, 2012. 1.Rodeo 2.The Bungy 3.容疑者 (Yougisha) 4.Sudden Death Game 5.SURVIVE 6.Page 1 7.君だけ (Kimi Dake) 8.Matryoshka 9.Te wo Tatake 10.友情讃歌 (Yuujou Sanka) 11.Hologram …

Read More »

[TV-SHOW] GACKT – DIABOLOS ~Aien no Shi to Seiya no Namida~ Live Tour 2005 (2006.03.29) (DVDRIP)

Gackt’s Diabolos Live Tour 2005, it was also his first ever performance at the Tokyo Dome in support of his eighth full length album Diabolos. Tracklist 01. Dybbuk 02. white eyes 03. Dispar 04. Metamorphoze 05. REDEMPTION 06. Ash 07. Misty 08. Lust for blood …

Read More »

[TV-SHOW] CDTV (2018.12.09)

▼ARTIST FILE.山下智久 先輩とのエピソードとは!?▼キンプリ・RADWIMPS・NMB.12月のDVDエクスプレス!▼コブクロのベストアルバム紹介! ☆ゲスト ♪コブクロ「風」(アルバムレコメンド) ♪SKE48「Stand by you」 ☆コーナー1 ▼ARTIST FILE.山下智久 先輩とのエピソードとは!?アーティスト山下智久の素顔に迫る

Read More »