[MUSIC VIDEO] 河村隆一 (Ryuichi Kawamura) – Ryuichi Kawamura Live2021 “Home” #07 (2021.02.15/MP4/RAR)

youtube 無料生配信ライブ
General
Complete name : E:\RKHome#07 [2021.02.15].mp4
Format : MPEG-4
Format profile : Base Media
Codec ID : isom (isom/iso2/avc1/mp41)
File size : 1.17 GiB
Duration : 1 h 27 min
Overall bit rate mode : Variable
Overall bit rate : 1 918 kb/s
Encoded date : UTC 2021-02-15 11:30:25
Tagged date : UTC 2021-02-15 11:30:25

Video
ID : 1
Format : AVC
Format/Info : Advanced Video Codec
Format profile : High@L4
Format settings : CABAC / 3 Ref Frames
Format settings, CABAC : Yes
Format settings, Reference fra : 3 frames
Codec ID : avc1
Codec ID/Info : Advanced Video Coding
Duration : 1 h 27 min
Bit rate : 1 786 kb/s
Width : 1 920 pixels
Height : 1 080 pixels
Display aspect ratio : 16:9
Frame rate mode : Constant
Frame rate : 30.000 FPS
Color space : YUV
Chroma subsampling : 4:2:0
Bit depth : 8 bits
Scan type : Progressive
Bits/(Pixel*Frame) : 0.029
Stream size : 1.09 GiB (93%)
Title : ISO Media file produced by Google Inc.
Encoded date : UTC 2021-02-15 11:30:25
Tagged date : UTC 2021-02-15 11:30:25
Color range : Limited
Color primaries : BT.709
Transfer characteristics : BT.709
Matrix coefficients : BT.709
Codec configuration box : avcC

Audio
ID : 2
Format : AAC LC
Format/Info : Advanced Audio Codec Low Complexity
Codec ID : mp4a-40-2
Duration : 1 h 27 min
Bit rate mode : Variable
Bit rate : 128 kb/s
Channel(s) : 2 channels
Channel layout : L R
Sampling rate : 44.1 kHz
Frame rate : 43.066 FPS (1024 SPF)
Compression mode : Lossy
Stream size : 79.7 MiB (7%)
Title : ISO Media file produced by Google Inc.
Language : English
Default : Yes
Alternate group : 1
Encoded date : UTC 2021-02-15 11:30:20
Tagged date : UTC 2021-02-15 11:30:20

DOWNLOAD From : Rapidgator, Uploaded, Katfile, Mexashare, …

Subscribe
Notify of
guest
0 Comments
Inline Feedbacks
View all comments
0
Would love your thoughts, please comment.x
()
x